#TITLE:Don't Forget;
#SUBTITLE:Initiate;
#ARTIST:Lee Ji Hye;
#TITLETRANSLIT:;
#SUBTITLETRANSLIT:;
#ARTISTTRANSLIT:;
#CREDIT:;
#BANNER:Don't-Forget-bn.jpg;
#BACKGROUND:Don't-Forget-bg.jpg;
#LYRICSPATH:;
#CDTITLE:cdtitle.png;
#MUSIC:Don't Forget.mp3;
#OFFSET:0.000;
#SAMPLESTART:100.000;
#SAMPLELENGTH:12.000;
#SELECTABLE:YES;
#BPMS:0.000=75.000;
#STOPS:;
#BGCHANGES:;
// cache tags:
#FIRSTBEAT:0.000;
#LASTBEAT:206.250;
#SONGFILENAME:Songs/Initiate/don'tforget/Don't Forget.sm;
#HASMUSIC:1;
#HASBANNER:1;
#MUSICLENGTH:166.060;
// end cache tags

//---------------dance-single - ----------------
#NOTES:
     dance-single:
     :
     Hard:
     6:
     0.722,0.838,1.000,0.735,0.494,480.000,223.000,122.000,0.000,75.000:
0001
0000
0000
0000
0000
0100
0010
0001
1000
0000
0001
0000
0001
0000
0001
0000
,
1201
0000
0000
0000
0000
0000
0000
0000
0000
0000
0000
0300
0001
0000
0000
0000
2000
0000
0000
0000
0000
0000
0000
0000
0000
0000
0000
3000
0001
0000
0000
0000
,
0020
0000
0000
0000
0000
0000
0000
0000
0000
0000
0000
0031
1000
0000
0100
0000
0010
0000
0000
0000
0001
0000
0000
0000
0010
0000
0000
0000
1000
0000
0000
0000
,
0100
0000
0000
0000
0000
0000
0000
0000
1000
0000
0000
0000
0000
0000
0000
0000
0010
0000
0000
0000
0000
0000
0000
0000
0100
0000
0000
0000
0000
0000
0000
0000
0001
0000
0000
0000
0000
0000
0000
0000
0000
0000
0000
0000
0000
0000
0000
0000
0001
0010
0100
0000
0000
0000
0000
0000
0000
0000
0000
0000
0000
0000
0000
0000
,
2001
0000
0000
0000
0001
0000
0000
0000
0001
0000
0000
0000
0001
0000
0001
3000
0121
0000
0000
0000
0101
0000
0000
0000
0101
0000
0000
0000
0101
0000
0000
0030
,
0201
0000
0000
0000
1001
0000
0000
0000
0001
0000
0000
0000
1001
0000
0000
0300
1021
0000
0000
0000
1001
0000
0000
0000
0101
0000
0000
0000
0101
0000
0000
0030
,
1201
0000
0000
0000
1001
0000
0000
0000
1001
0000
0000
0000
0001
0000
0000
0300
0021
0000
0000
0000
0101
0000
0000
0000
1001
0000
0000
0000
0101
0000
0000
0030
,
2002
3223
0000
0330
,
1111
0000
0000
0000
0000
0000
0000
0000
1001
0000
0000
0000
0010
0001
1000
0000
0100
0000
1000
0000
0001
0000
0100
0000
0010
0000
1000
0000
0100
0010
0001
1000
,
0000
0000
0000
0000
0001
0010
0100
0000
1000
0000
0100
0000
1000
0000
0001
0000
0100
0000
0010
0000
1000
0000
0010
0000
0100
0000
1000
0000
0001
0010
0100
0001
,
0000
0000
0000
0000
0000
0000
1000
0100
0010
0000
0000
0000
1000
0000
0000
0000
0100
0000
0000
0000
1000
0000
0000
0000
0001
0000
0000
0000
0100
0000
0000
0000
0010
0000
0000
0000
0001
0000
0000
0000
1000
0000
0000
0000
0010
0000
0000
0000
0100
0000
0000
0000
1000
0000
0000
0000
1000
0000
0100
0000
0010
0000
0001
0000
,
0000
0000
0000
0000
0000
0000
1000
0010
0100
0000
0000
0000
0001
0000
0000
0000
0010
0000
0000
0000
0100
0000
0000
0000
0010
0000
0000
0000
1000
0000
0000
0000
0010
0000
0000
0000
0100
0000
0000
0000
0001
0000
0000
0000
0010
0000
0000
0000
0100
0000
0000
0000
1000
0000
0000
0000
0010
0000
0001
0000
0100
0000
0000
0000
,
0000
0000
0000
0000
1000
0000
0001
0010
0100
0000
0000
0000
0001
0000
0000
0000
1000
0000
0000
0000
0010
0000
0000
0000
0100
0000
0000
0000
1000
0000
0000
0000
0001
0000
0000
0000
0010
0000
0000
0000
0001
0000
0000
0000
0001
0000
0000
0000
0100
0000
0000
0000
0010
0000
0000
0000
0100
0000
0001
0000
1000
0000
0000
0000
,
0000
0000
0001
0010
0100
0000
0000
0000
1000
0000
0000
0000
0001
0000
0000
0000
0001
0000
0000
0000
0100
0000
0000
0000
0010
0000
1000
0000
0100
0000
0001
0000
1000
0000
0000
0000
0010
0000
0000
0000
1000
0000
0000
0000
0100
0000
0000
0000
0001
0000
0000
0000
0100
0000
0100
0000
0010
0000
0000
0000
0000
0000
0000
0000
,
0100
0010
0001
0000
1000
0000
0010
0000
0100
0000
0001
0000
0010
0000
0001
0000
1000
0000
0100
0000
0100
0000
1000
0000
0010
0000
0100
0000
0001
0010
1000
0100
,
0000
0000
0001
0000
1000
0000
0110
0000
0110
0000
0110
0000
0110
0000
0110
0000
2002
0000
0000
0000
0000
0000
0000
3003
1221
0000
0000
0000
0000
0000
0000
0330
,
1001
0010
0100
1000
0101
0010
1000
0100
0202
0000
0000
0000
1313
0101
0110
1010
,
0202
0000
0000
0000
1313
0110
0011
0110
2200
0000
3322
0000
2233
0000
3322
0000
,
1133
0000
0010
0000
1000
0100
0010
0001
0020
0000
0000
0000
0130
0010
0001
0100
,
2000
0000
0010
0001
3110
0000
0000
0001
0010
0100
1000
0100
0010
0100
0020
0000
,
1001
0000
0000
0000
1130
0000
0000
0000
0100
0000
0100
0000
0001
0000
0100
0000
1010
0000
0000
0000
0110
0000
0000
0000
2110
0000
0000
0000
0000
0000
0000
3000
,
0011
0100
1000
1000
0000
0001
0001
0100
0022
0000
2233
0000
3322
0000
0000
0000
,
1133
0000
1001
0010
0000
0110
1001
0110
0110
0000
1010
0000
0202
0000
0000
0000
,
1313
0000
0011
0001
2121
0000
0000
0000
3131
0000
0011
0110
2101
0000
0001
0000
,
3101
0000
1100
0000
0110
0001
0110
1000
0110
0000
1001
0000
1001
0000
1001
0000
,
2002
0000
0000
0000
0000
0000
0000
0000
0000
0000
0000
3003
0110
0000
0000
0000
0220
0000
0000
0000
0000
0000
0000
0000
0000
0000
0000
0330
1001
0000
0000
0000
,
2002
0000
0000
0000
0000
0000
0000
3003
0110
0000
1000
0000
0110
0000
0001
0000
0110
0000
0000
0000
1010
0000
0000
0000
1010
0000
0000
0000
0101
0000
0000
0000
,
0101
1010
0110
0110
2020
0000
3232
0000
,
2323
0000
0000
0000
3131
0100
1100
0010
0101
0000
0011
0000
0101
0000
1100
0000
,
2002
0000
0000
0000
0000
0000
0000
0000
0000
0000
0000
3003
0110
0000
0000
0000
2020
0000
0000
0000
0000
0000
0000
3030
0101
0000
0000
0000
0110
0000
0000
0000
,
1100
0101
1100
0110
0220
0000
2332
0000
,
3223
2332
3223
0000
,
1331
0001
1000
0010
0101
0010
0100
0010
2002
0000
0000
0000
3113
1000
1010
0001
,
0202
0000
0000
0000
1313
1000
1000
0010
2020
0000
3232
0000
2323
0000
3232
0000
,
1313
0000
0110
0000
0110
1100
0110
1001
0220
0000
0000
0000
1331
1000
0100
0010
,
0002
0000
0010
1000
2023
0000
0000
0001
3131
0010
1100
1000
0110
0001
1100
0000
,
0101
1000
0110
0001
1010
0100
0011
0010
,
1100
1000
1100
0001
0101
0010
0101
1000
,
0110
1000
0110
0001
0110
1000
1100
0100
,
0011
0010
0110
1000
1001
0010
0110
0100
,
1111
0010
0100
1000
1100
0010
0001
0010
0220
0000
0000
0000
1331
0110
1001
0110
,
0220
0000
0000
0000
1331
0110
1001
0110
2002
0000
3223
0000
2332
0000
3223
0000
,
1331
0000
1001
0000
0110
1000
0110
0010
0220
0000
0000
0000
1331
0010
0101
1000
,
0110
0000
1001
0110
0000
0000
0000
0220
0000
1001
1331
0110
1001
0110
2002
0000
,
0000
3113
0110
1010
1010
0101
0220
0000
,
1331
0100
1010
0010
1001
0100
1001
0010
2002
0000
3223
0000
2332
0000
0000
0000
,
3113
0000
1001
0110
0000
0110
1001
0110
1001
0000
1001
0000
0220
0000
0000
0000
,
1331
0000
1001
0110
0220
0000
0000
0000
1331
0000
0110
1001
0220
0000
0001
0000
,
2332
0000
0000
0000
,
3003
0000
0000
0000
0000
0000
0000
0000
0000
0000
0000
0000
0000
0000
0000
0000
0000
0000
0000
0000
0000
0000
0000
0000
0000
0000
0000
0000
0000
0000
0000
0000
0000
0000
1000
0100
0020
0000
0000
0000
0000
0000
0000
0000
0000
0000
0000
0000
0000
0000
0000
0000
0000
0000
0000
0000
0000
0000
0000
0000
0000
0000
0000
0000
,
0000
0000
0000
0000
,
0000
0000
0000
0000
0000
0000
0000
0000
0000
0030
0000
0000
0000
0000
0000
0000
:

a=8x. note=20.000000,
,b=8x. note=20.000000,
,d=8x. note=20.000000,
;
